<?xml version="1.0" standalone="no"?> <!DOCTYPE svg PUBLIC "-//W3C//DTD SVG 1.0//EN" "http://www.w3.org/TR/2001/REC-SVG-20010904/DTD/svg10.dtd" > <svg xmlns="http://www.w3.org/2000/svg" width="100%" height="100%">
<defs >
<font horiz-adv-x="1340" ><font-face
    font-family="Days One"
    units-per-em="2048"
    panose-1="2 0 5 5 0 0 0 2 0 4"
    ascent="2040"
    descent="-567"
    alphabetic="0" />
<missing-glyph horiz-adv-x="717" />
<glyph unicode=" " glyph-name="space" horiz-adv-x="717" />
<glyph unicode="!" glyph-name="exclam" horiz-adv-x="653" d="M125 1339Q123 1378 151 1406T219 1434H434Q473 1434 501 1406T528 1339L500 518Q498 479 471 453T406 426H248Q209 426 183 452T154 518L125 1339ZM389 324Q524 324 524 188V125Q524 62 490 26T389
-10H266Q200 -10 166 26T131 125V188Q131 254 166 289T266 324H389Z" />
<glyph unicode="&quot;" glyph-name="quotedbl" horiz-adv-x="807" d="M63 1352Q61 1386 83 1410T143 1434H274Q311 1434 333 1410T354 1352L324 926Q319 889 297 867T240 844H178Q143 844 121 866T94 926L63 1352ZM453 1352Q451 1386 473 1410T532 1434H664Q700
1434 722 1410T743 1352L713 926Q709 889 687 867T629 844H567Q532 844 510 866T483 926L453 1352Z" />
<glyph unicode="#" glyph-name="numbersign" horiz-adv-x="1714" d="M242 0Q182 0 182 63Q182 78 186 94L252 328H102Q75 328 58 345T41 389V508Q43 535 59 552T102 569H319L403 864H193Q166 864 149 881T131 926V1044Q131 1071 148 1088T193 1106H471L539 1339Q566
1433 702 1434H817Q874 1434 877 1371Q877 1356 872 1339L805 1106H1102L1169 1339Q1196 1433 1333 1434H1448Q1505 1434 1508 1371Q1508 1356 1503 1339L1436 1106H1612Q1639 1106 1655 1089T1673 1044V926Q1671 899 1655 882T1612 864H1368L1284 569H1495Q1522
569 1539 552T1556 508V389Q1556 362 1540 345T1497 328H1217L1151 94Q1124 0 987 0H872Q813 0 813 63Q813 78 817 94L883 328H586L520 94Q493 0 356 0H242ZM645 563H954L1040 870H731L645 563Z" />
<glyph unicode="$" glyph-name="dollar" horiz-adv-x="1595" d="M61 360Q61 419 96 445T164 471H283Q373 471 420 373T631 274H639V592Q319 660 192 771Q74 873 74 1024Q74 1214 202 1320T639 1440V1534Q639 1561 656 1578T700 1595H774V1442H829V1595H903Q930
1595 947 1578T965 1534V1442Q1168 1440 1332 1335T1497 1073Q1497 1014 1462 989T1395 963H1276Q1186 963 1142 1055T965 1157V844Q1203 791 1351 708Q1534 607 1534 414T1405 112T965 -6V-100Q965 -127 948 -144T903 -162H829V-8H774V-162H700Q673 -162 656 -145T639
-100V-8H596Q391 -8 226 97T61 360ZM451 1044Q451 964 639 913V1159H627Q451 1159 451 1044ZM774 274H829V551L774 561V274ZM774 883L829 872V1159H774V883ZM965 274H981Q1157 274 1157 389Q1157 469 965 520V274Z" />
<glyph unicode="%" glyph-name="percent" horiz-adv-x="1673" d="M61 969T61 1122T160 1365T409 1454T658 1365T758 1123T659 880T410 791T161 880ZM135 56Q135 71 154 94L1151 1339Q1225 1433 1325 1434H1485Q1524 1434 1535 1403Q1538 1394 1538 1378T1520 1339L522
94Q448 0 348 0H188Q135 0 135 56ZM295 1190T295 1123T325 1016T409 977T493 1016T524 1122T494 1229T410 1268T326 1229ZM915 160T915 313T1014 556T1263 645T1512 556T1612 314T1513 71T1264 -18T1015 71ZM1149 381T1149 314T1179 207T1263 168T1347 207T1378
313T1348 420T1264 459T1180 420Z" />
<glyph unicode="&amp;" glyph-name="ampersand" horiz-adv-x="1540" d="M61 424Q61 703 301 813Q211 911 211 1047Q211 1221 350 1337T742 1454T1140 1366T1286 1106Q1286 1079 1269 1062T1225 1044H1092Q1024 1044 977 1118Q918 1212 745 1212Q657 1212 608 1174T559
1064T603 932T731 799L1077 498L1176 639Q1210 686 1257 655L1366 582Q1396 560 1396 538T1382 496L1262 324L1518 94Q1539 74 1539 58Q1539 0 1483 0H1255Q1177 0 1112 50Q1090 68 1051 104Q856 -21 603 -21T206 98T61 424ZM397 424Q397 221 643 221Q766 221 854
281L498 602Q397 553 397 424Z" />
<glyph unicode="&apos;" glyph-name="quotesingle" horiz-adv-x="418" d="M63 1352Q61 1386 83 1410T143 1434H274Q311 1434 333 1410T354 1352L324 926Q319 889 297 867T240 844H178Q143 844 121 866T94 926L63 1352Z" />
<glyph unicode="(" glyph-name="parenleft" horiz-adv-x="666" d="M498 1509Q512 1520 523 1520T550 1515T580 1487L637 1393Q643 1382 643 1364T612 1311Q373 1018 373 625T612 -61Q643 -96 643 -114T637 -143L580 -238Q565 -260 550 -264T524 -269T498 -260Q281
-117 171 119T61 624T171 1129T498 1509Z" />
<glyph unicode=")" glyph-name="parenright" horiz-adv-x="666" d="M29 -143Q23 -133 23 -115T53 -61Q293 231 293 624T53 1311Q23 1346 23 1364T29 1393L86 1487Q107 1520 130 1520T168 1509Q385 1366 494 1130T604 625T495 120T168 -260Q154 -270 143 -270T125
-266Q100 -260 86 -238L29 -143Z" />
<glyph unicode="*" glyph-name="asterisk" horiz-adv-x="872" d="M63 914Q68 955 94 969L238 1044L94 1120Q71 1132 68 1149T64 1179T72 1204L113 1280Q125 1303 148 1310T197 1303L330 1221L328 1378Q328 1403 345 1418T389 1434H483Q510 1434 527 1419T545 1378L543
1221L676 1303Q701 1317 724 1310T760 1280L801 1204Q809 1190 809 1178Q809 1136 778 1120L635 1044L778 969Q809 953 809 926T801 885L760 809Q748 786 724 779T676 786L543 868L545 711Q545 686 528 671T483 655H389Q362 655 345 670T328 711L330 868L197 786Q172
772 149 779T113 809L72 885Q64 899 63 914Z" />
<glyph unicode="+" glyph-name="plus" horiz-adv-x="958" d="M41 569V688Q41 715 58 732T102 750H352V999Q352 1026 369 1043T414 1061H532Q559 1061 576 1044T594 999V750H856Q883 750 900 733T918 688V569Q918 542 901 525T856 508H594V246Q594 219 577 202T532
184H414Q387 184 370 201T352 246V508H102Q75 508 58 525T41 569Z" />
<glyph unicode="," glyph-name="comma" horiz-adv-x="551" d="M340 324Q469 324 469 229Q469 203 455 168L336 -133Q315 -182 273 -215T178 -248H139Q76 -248 60 -222T43 -167T47 -113L106 209Q115 256 161 290T258 324H340Z" />
<glyph unicode="-" glyph-name="hyphen" horiz-adv-x="958" d="M41 569V688Q41 715 58 732T102 750H856Q883 750 900 733T918 688V569Q918 542 901 525T856 508H102Q75 508 58 525T41 569Z" />
<glyph unicode="." glyph-name="period" horiz-adv-x="557" d="M340 324Q475 324 475 188V125Q475 62 441 26T340 -10H217Q151 -10 117 26T82 125V188Q82 254 117 289T217 324H340Z" />
<glyph unicode="/" glyph-name="slash" horiz-adv-x="1055" d="M49 0Q0 0 0 47Q0 70 14 94L664 1339Q711 1434 838 1434H1006Q1055 1434 1055 1386Q1055 1364 1040 1339L391 94Q344 0 217 0H49Z" />
<glyph unicode="0" glyph-name="zero" horiz-adv-x="1630" d="M61 717Q61 918 116 1062T274 1287Q468 1442 780 1442H850Q1162 1442 1356 1287Q1569 1117 1569 717Q1569 315 1356 146Q1162 -8 850 -8H780Q468 -8 274 146Q61 315 61 717ZM438 1159T438 717T815
274T1192 716T815 1159Z" />
<glyph unicode="1" glyph-name="one" horiz-adv-x="813" d="M14 1085Q2 1102 2 1125T35 1176L279 1386Q332 1433 426 1434H573Q614 1434 642 1406T670 1339V94Q670 55 641 28T573 0H387Q348 0 321 26T293 92V1059L178 975Q158 961 132 966T90 989L14 1085Z" />
<glyph unicode="2" glyph-name="two" horiz-adv-x="1438" d="M61 94V240Q61 367 113 460T248 606T430 697T630 758T813 806Q999 862 999 965Q999 1077 941 1118T745 1159H674Q481 1159 420 1036Q375 942 285 942H166Q117 942 90 977T63 1053Q63 1167 150 1258T368
1396T639 1442H774Q1213 1442 1330 1198Q1376 1102 1376 975T1324 759T1190 618T1008 527T807 465T625 418Q438 366 438 283H1268Q1309 283 1336 255T1364 188V94Q1364 55 1336 28T1268 0H158Q119 0 90 27T61 94Z" />
<glyph unicode="3" glyph-name="three" horiz-adv-x="1481" d="M51 391Q51 451 86 476T154 502H272Q365 502 418 388T662 274H805Q928 274 985 309T1042 428T985 547T805 582H625Q586 582 558 609T530 676V758Q530 795 557 823T621 852H768Q901 852 961 887T1022
1006T962 1124T768 1159H694Q502 1159 440 1036Q395 942 305 942H186Q138 942 111 977T84 1053Q84 1167 171 1258T388 1396T659 1442H797Q1399 1442 1399 1004Q1399 821 1262 717Q1419 618 1419 428Q1419 197 1272 95T840 -8H627Q403 -8 227 102T51 391Z" />
<glyph unicode="4" glyph-name="four" horiz-adv-x="1536" d="M20 346V465Q20 553 82 621L743 1372Q798 1433 899 1434H1212Q1253 1434 1281 1406T1309 1339V535H1419Q1460 535 1488 507T1516 440V346Q1516 307 1487 280T1419 252H1309V94Q1309 55 1280 28T1212
0H1026Q987 0 960 26T932 92V252H117Q78 252 49 279T20 346ZM422 535H932V1114L422 535Z" />
<glyph unicode="5" glyph-name="five" horiz-adv-x="1485" d="M82 346Q82 406 117 431T184 457H303Q387 457 437 366T651 274H809Q932 274 989 313T1047 446T990 579T809 618H227Q188 618 161 645T133 711V1339Q133 1380 160 1407T227 1434H1257Q1298 1434 1325
1407T1352 1339V1245Q1352 1204 1325 1178T1257 1151H510V901H844Q1128 901 1275 795T1423 447T1276 99T844 -8H616Q391 -8 237 93T82 346Z" />
<glyph unicode="6" glyph-name="six" horiz-adv-x="1522" d="M82 483V926Q82 1210 226 1326T657 1442H911Q1137 1442 1287 1343T1438 1094Q1438 1034 1403 1009T1335 983H1217Q1139 983 1086 1071T877 1159H692Q569 1159 514 1110T459 926V889H881Q1165 889 1312
786T1460 441T1313 96T881 -8H662Q373 -8 228 102T82 483ZM459 483Q459 360 514 317T696 274H846Q969 274 1026 310T1083 440T1026 570T846 606H459V483Z" />
<glyph unicode="7" glyph-name="seven" horiz-adv-x="1305" d="M20 1245V1339Q20 1378 49 1406T117 1434H1188Q1227 1434 1255 1406T1284 1339V1247Q1284 1178 1223 1065L698 94Q647 0 567 0H362Q322 0 306 26T305 84L883 1151H117Q76 1151 48 1178T20 1245Z" />
<glyph unicode="8" glyph-name="eight" horiz-adv-x="1548" d="M381 -8T221 105T61 439T254 762Q119 873 119 1026Q119 1137 164 1220T289 1350Q446 1442 680 1442H868Q1104 1442 1260 1350Q1339 1303 1384 1220T1430 1026Q1430 872 1294 762Q1487 660 1487 440T1327
106T915 -8H633Q381 -8 221 105ZM438 520T438 432T495 309T676 274H872Q995 274 1052 309T1110 432T1053 555T872 590H676Q553 590 496 555ZM483 1092T483 1012T540 898T721 864H823Q946 864 1003 898T1061 1012T1004 1125T823 1159H721Q598 1159 541 1126Z" />
<glyph unicode="9" glyph-name="nine" horiz-adv-x="1522" d="M641 1442H860Q1149 1442 1294 1332T1440 950V508Q1440 223 1296 108T864 -8H610Q385 -8 235 91T84 340Q84 399 119 425T186 451H305Q383 451 436 363T645 274H829Q952 274 1007 323T1063 508V545H641Q356
545 209 648T61 993T208 1338T641 1442ZM676 827H1063V950Q1063 1073 1008 1116T825 1159H676Q553 1159 496 1123T438 993T495 863T676 827Z" />
<glyph unicode=":" glyph-name="colon" horiz-adv-x="557" d="M340 324Q475 324 475 188V125Q475 62 441 26T340 -10H217Q151 -10 117 26T82 125V188Q82 254 117 289T217 324H340ZM217 782Q82 782 82 918V981Q82 1044 117 1080T217 1116H340Q406 1116 440 1080T475
981V918Q475 782 340 782H217Z" />
<glyph unicode=";" glyph-name="semicolon" horiz-adv-x="561" d="M47 -113L106 209Q114 256 160 290T258 324H340Q420 324 452 282Q483 242 455 168L336 -133Q316 -182 274 -215T178 -248H139Q76 -248 59 -222T42 -167T47 -113ZM221 782Q86 782 86 918V981Q86
1044 121 1080T221 1116H344Q410 1116 444 1080T479 981V918Q479 782 344 782H221Z" />
<glyph unicode="&lt;" glyph-name="less" horiz-adv-x="819" d="M20 522V571Q20 637 80 680L649 1083Q684 1106 710 1093T737 1042V870Q737 796 649 735L383 547L649 358Q737 297 737 223V51Q737 14 711 1T649 10L80 414Q20 456 20 522Z" />
<glyph unicode="=" glyph-name="equal" horiz-adv-x="999" d="M61 354V473Q61 500 78 517T123 535H877Q904 535 921 518T938 473V354Q938 327 921 310T877 293H123Q96 293 79 310T61 354ZM61 776V895Q61 922 78 939T123 956H877Q904 956 921 939T938 895V776Q938
749 921 732T877 715H123Q96 715 79 732T61 776Z" />
<glyph unicode="&gt;" glyph-name="greater" horiz-adv-x="819" d="M82 51V223Q82 297 170 358L436 547L170 735Q82 796 82 870V1042Q82 1079 109 1093Q119 1098 133 1098T170 1083L739 680Q798 637 799 571V522Q799 456 739 414L170 10Q148 -4 133 -4T109 1Q82
14 82 51Z" />
<glyph unicode="?" glyph-name="question" horiz-adv-x="1321" d="M20 1053Q20 1223 192 1332T569 1442H684Q1260 1442 1260 995Q1260 895 1212 822T1094 709T955 639T837 572T788 498Q788 426 727 426H502Q475 426 458 443T440 487Q440 573 473 639T555 742T661
813T768 868Q883 921 883 1001T829 1120T655 1159H604Q438 1159 377 1036Q332 942 242 942H123Q74 942 47 977T20 1053ZM420 125V188Q420 254 456 289T555 324H678Q741 324 777 289T813 188V125Q813 61 777 26T678 -10H555Q492 -10 456 25T420 125Z" />
<glyph unicode="@" glyph-name="at" horiz-adv-x="1700" d="M61 1030T279 1242T863 1454T1433 1287T1638 766Q1638 549 1521 412T1165 274H1069Q1051 274 1039 286T1026 315V338Q920 262 778 262T545 324T455 500T545 675T778 737H1004Q1004 817 971 849T855 881T731
836Q707 799 653 799H551Q535 799 523 810T510 840Q510 1036 883 1036Q1044 1036 1143 963T1243 737V469Q1382 469 1382 766Q1382 1006 1247 1119T861 1233T464 1074T317 655T464 237T870 78Q1006 78 1087 93T1190 109H1219Q1245 109 1262 90T1280 43V-51Q1280
-74 1263 -91T1219 -113Q1065 -143 870 -143Q498 -143 280 69T61 655ZM748 584T719 561T690 500T720 440T803 416Q909 416 1004 477V584H797Q748 584 719 561Z" />
<glyph unicode="A" glyph-name="A" horiz-adv-x="1708" d="M25 92L276 1044Q378 1433 940 1434H1479Q1516 1434 1540 1406T1565 1341V92Q1565 53 1537 27T1470 0H1282Q1241 0 1215 26T1188 94V346H477L410 94Q400 53 365 27T291 0H94Q55 0 38 22T21 62T25 92ZM551
629H1188V1151H903Q807 1151 736 1097T639 950L551 629Z" />
<glyph unicode="B" glyph-name="B" horiz-adv-x="1690" d="M143 1339Q143 1378 171 1406T238 1434H1051Q1350 1434 1492 1262Q1571 1167 1571 1020T1436 762Q1628 659 1628 442T1475 113T1098 0H238Q199 0 171 27T143 94V1339ZM520 270H1092Q1169 270 1210 316T1251
442T1210 568T1092 614H520V270ZM520 877H1055Q1118 877 1156 914T1194 1019T1156 1125T1055 1163H520V877Z" />
<glyph unicode="C" glyph-name="C" horiz-adv-x="1673" d="M61 346T61 716T246 1264T803 1442H1026Q1253 1442 1427 1324T1602 1001Q1602 942 1567 917T1499 891H1380Q1288 891 1237 1001Q1163 1159 991 1159H813Q594 1159 516 1065T438 717T516 369T813 274H1012Q1184
274 1257 432Q1308 543 1401 543H1520Q1567 543 1594 508T1622 432Q1622 227 1448 110T1047 -8H803Q432 -8 247 169Z" />
<glyph unicode="D" glyph-name="D" horiz-adv-x="1688" d="M143 92V1337Q143 1378 171 1406T238 1434H797Q1231 1434 1428 1261T1626 717T1429 173T797 0H238Q199 0 171 26T143 92ZM520 283H786Q1055 283 1152 381T1249 716T1152 1052T786 1151H520V283Z" />
<glyph unicode="E" glyph-name="E" horiz-adv-x="1526" d="M143 96V1341Q143 1380 171 1407T238 1434H1391Q1430 1434 1457 1406T1485 1339V1245Q1485 1206 1458 1179T1391 1151H520V860H1270Q1309 860 1336 833T1364 766V672Q1364 633 1337 606T1270 578H520V283H1389Q1427
283 1454 256T1481 190V94Q1481 55 1453 28T1386 0H238Q199 0 171 27T143 96Z" />
<glyph unicode="F" glyph-name="F" horiz-adv-x="1505" d="M143 96V1341Q143 1380 171 1407T238 1434H1391Q1430 1434 1457 1406T1485 1339V1245Q1485 1206 1458 1179T1391 1151H520V799H1229Q1268 799 1295 771T1323 705V610Q1323 571 1296 544T1229 516H520V96Q520
55 493 28T426 0H238Q199 0 171 27T143 96Z" />
<glyph unicode="G" glyph-name="G" horiz-adv-x="1696" d="M416 -8T239 171T61 718T246 1264T803 1442H1026Q1247 1442 1424 1337T1602 1073Q1602 1014 1567 989T1499 963H1380Q1294 963 1243 1061T991 1159H813Q594 1159 516 1065T438 719T508 371T758 274H963Q1124
274 1193 335T1264 512H1038Q999 512 972 539T944 606V684Q944 723 971 750T1038 778H1540Q1579 778 1606 751T1634 684V573Q1634 293 1466 143T973 -8H748Q416 -8 239 171Z" />
<glyph unicode="H" glyph-name="H" horiz-adv-x="1729" d="M143 94V1339Q143 1378 171 1406T240 1434H426Q465 1434 492 1406T520 1339V889H1208V1339Q1208 1378 1236 1406T1303 1434H1489Q1530 1434 1557 1406T1585 1339V94Q1585 55 1557 28T1489 0H1303Q1264
0 1236 26T1208 92V606H520V92Q520 53 493 27T426 0H240Q201 0 172 27T143 94Z" />
<glyph unicode="I" glyph-name="I" horiz-adv-x="664" d="M143 92V1339Q143 1378 171 1406T238 1434H424Q465 1434 492 1406T520 1339V94Q520 55 492 28T424 0H238Q199 0 171 26T143 92Z" />
<glyph unicode="J" glyph-name="J" horiz-adv-x="1130" d="M127 301L295 283H367Q506 283 568 340T631 532V1339Q631 1378 658 1406T725 1434H911Q952 1434 980 1406T1008 1339V535Q1008 279 838 140T377 0H94Q55 0 28 27T0 94V207Q0 246 26 273T94 301H127Z" />
<glyph unicode="K" glyph-name="K" horiz-adv-x="1628" d="M1627 44Q1627 0 1575 0H1346Q1307 0 1262 27T1192 94L1016 373Q953 475 889 526T735 578H520V92Q520 53 493 27T426 0H238Q199 0 171 28T143 96V1339Q143 1378 171 1407T238 1436H426Q465 1436 492 1407T520
1339V860H735Q823 860 889 908T1016 1063L1171 1339Q1224 1435 1315 1436H1546Q1594 1436 1594 1394Q1594 1371 1577 1339L1360 946Q1313 860 1255 804T1102 725Q1168 711 1237 642T1360 492L1610 94Q1627 65 1627 44Z" />
<glyph unicode="L" glyph-name="L" horiz-adv-x="1505" d="M143 92V1337Q143 1378 171 1406T238 1434H426Q465 1434 492 1406T520 1337V283H1391Q1430 283 1457 255T1485 188V94Q1485 55 1458 28T1391 0H238Q199 0 171 26T143 92Z" />
<glyph unicode="M" glyph-name="M" horiz-adv-x="2118" d="M143 96V1337Q143 1378 170 1406T236 1434H643Q682 1434 717 1406T764 1339L1059 485L1354 1339Q1366 1378 1401 1406T1475 1434H1882Q1921 1434 1947 1406T1974 1337V96Q1974 55 1947 28T1880 0H1700Q1661
0 1634 27T1606 96V1073L1253 90Q1239 53 1204 27T1130 0H987Q948 0 914 26T864 90L512 1073V96Q512 55 485 28T418 0H238Q199 0 171 27T143 96Z" />
<glyph unicode="N" glyph-name="N" horiz-adv-x="1776" d="M143 94V1339Q143 1378 170 1406T236 1434H530Q565 1434 604 1406T668 1339L1272 410V1341Q1272 1380 1299 1407T1366 1434H1538Q1577 1434 1604 1407T1632 1339V94Q1632 55 1605 28T1538 0H1206Q1167
0 1126 27T1061 94L508 952V94Q508 55 481 28T414 0H238Q199 0 171 27T143 94Z" />
<glyph unicode="O" glyph-name="O" horiz-adv-x="1733" d="M1262 -31T867 -31T266 148T61 717T266 1285T866 1464T1466 1285T1671 717T1467 149ZM1092 1194T867 1194T540 1074T438 717T539 360T866 240T1193 359T1294 716T1193 1074Z" />
<glyph unicode="P" glyph-name="P" horiz-adv-x="1645" d="M143 94V1339Q143 1378 170 1406T236 1434H999Q1604 1434 1604 877T999 319H520V94Q520 55 493 28T426 0H238Q199 0 171 27T143 94ZM520 602H885Q1053 602 1140 658T1227 876T1140 1094T885 1151H520V602Z" />
<glyph unicode="Q" glyph-name="Q" horiz-adv-x="1729" d="M61 1108T266 1286T868 1464T1468 1295T1671 748Q1671 548 1593 422Q1538 331 1475 260H1634Q1675 260 1702 233T1729 166V84Q1729 45 1702 18T1634 -10H866Q471 -10 266 168T61 727ZM866 260Q1294 260
1294 748Q1294 975 1193 1084T868 1194T541 1075T438 727T540 379T866 260Z" />
<glyph unicode="R" glyph-name="R" horiz-adv-x="1655" d="M1632 43Q1632 0 1581 0H1341Q1303 0 1258 27T1188 94L1018 360Q913 524 764 524H520V94Q520 55 493 28T426 0H238Q199 0 171 27T143 94V1339Q143 1378 170 1406T236 1434H1061Q1290 1434 1436 1311T1583
979Q1583 688 1206 614Q1266 592 1317 539T1434 383L1616 94Q1632 66 1632 43ZM520 807H946Q1049 807 1127 848T1206 979T1128 1110T946 1151H520V807Z" />
<glyph unicode="S" glyph-name="S" horiz-adv-x="1595" d="M61 367Q61 426 96 451T164 477H283Q373 477 420 379T631 281L981 274Q1157 274 1157 389Q1157 476 942 526Q846 549 730 571T500 628T289 708T134 834T74 1024Q74 1225 217 1333T709 1442L963 1436Q1168
1436 1332 1331T1497 1067Q1497 1008 1462 982T1395 956H1276Q1186 956 1139 1054T928 1153L627 1159Q451 1159 451 1044Q451 981 562 941T832 871T1151 797T1422 656T1534 410Q1534 209 1391 101T899 -8L596 -2Q391 -2 226 103T61 367Z" />
<glyph unicode="T" glyph-name="T" horiz-adv-x="1499" d="M20 1245V1339Q20 1380 47 1407T115 1434H1384Q1425 1434 1452 1407T1479 1339V1245Q1479 1204 1452 1178T1384 1151H938V92Q938 53 911 27T844 0H655Q616 0 589 26T561 92V1151H115Q74 1151 47 1177T20 1245Z" />
<glyph unicode="U" glyph-name="U" horiz-adv-x="1688" d="M123 567V1339Q123 1378 150 1406T219 1434H406Q444 1434 472 1406T500 1339V565Q500 418 564 346T764 274H924Q1059 274 1123 346T1188 565V1339Q1188 1378 1215 1406T1282 1434H1468Q1509 1434 1537
1406T1565 1339V567Q1565 293 1404 143T934 -8H754Q444 -8 284 142T123 567Z" />
<glyph unicode="V" glyph-name="V" horiz-adv-x="1634" d="M27 1350Q21 1362 21 1376T39 1412T92 1434H311Q389 1434 430 1339L817 477L1204 1339Q1245 1433 1323 1434H1542Q1577 1434 1595 1413T1613 1377T1608 1350L1032 102Q985 0 889 0H745Q649 0 602 102L27 1350Z" />
<glyph unicode="W" glyph-name="W" horiz-adv-x="2294" d="M25 1350Q20 1362 20 1377T37 1413T90 1434H309Q348 1434 381 1407T428 1339L692 547L936 1339Q965 1434 1055 1434H1239Q1329 1434 1358 1339L1602 547L1866 1339Q1880 1380 1913 1407T1985 1434H2204Q2238
1434 2255 1414T2273 1378T2269 1350L1823 102Q1786 0 1679 0H1534Q1423 0 1391 102L1147 872L903 102Q870 0 760 0H614Q508 0 471 102L25 1350Z" />
<glyph unicode="X" glyph-name="X" horiz-adv-x="1536" d="M76 0Q26 0 20 45Q20 67 41 94L545 737L70 1339Q49 1365 49 1388Q49 1434 104 1434H319Q419 1434 494 1339L768 991L1042 1339Q1116 1433 1217 1434H1432Q1487 1434 1487 1388Q1487 1366 1466 1339L991
737L1495 94Q1516 68 1516 52T1512 29Q1501 0 1460 0H1247Q1147 0 1073 94L768 483L463 94Q389 0 289 0H76Z" />
<glyph unicode="Y" glyph-name="Y" horiz-adv-x="1520" d="M20 1386Q20 1434 72 1434H262Q375 1434 436 1339L760 840L1083 1339Q1145 1434 1257 1434H1448Q1499 1434 1499 1386Q1499 1364 1483 1339L948 512V92Q948 53 921 27T854 0H666Q627 0 599 26T571 92V512L37
1339Q20 1364 20 1386Z" />
<glyph unicode="Z" glyph-name="Z" horiz-adv-x="1468" d="M51 1245V1339Q51 1380 78 1407T145 1434H1313Q1352 1434 1379 1407T1407 1339V1227Q1407 1186 1390 1148T1357 1094L1313 1049L526 283H1323Q1364 283 1390 256T1417 188V94Q1417 53 1391 27T1323 0H162Q123
0 96 26T68 94V205Q68 301 162 395L924 1151H145Q106 1151 79 1177T51 1245Z" />
<glyph unicode="[" glyph-name="bracketleft" horiz-adv-x="797" d="M143 -205V1454Q143 1481 160 1498T205 1516H715Q741 1516 758 1499T776 1454V1346Q776 1319 759 1302T715 1284H469V-35H715Q741 -35 758 -52T776 -96V-205Q776 -231 759 -248T715 -266H205Q178
-266 161 -249T143 -205Z" />
<glyph unicode="\" glyph-name="backslash" horiz-adv-x="1055" d="M0 1386Q0 1434 49 1434H217Q344 1434 391 1339L1040 94Q1055 70 1055 47Q1055 0 1006 0H838Q711 0 664 94L14 1339Q0 1364 0 1386Z" />
<glyph unicode="]" glyph-name="bracketright" horiz-adv-x="797" d="M20 -96Q20 -70 37 -53T82 -35H328V1284H82Q55 1284 38 1301T20 1346V1454Q20 1481 37 1498T82 1516H592Q618 1516 635 1499T653 1454V-205Q653 -231 636 -248T592 -266H82Q55 -266 38 -249T20
-205V-96Z" />
<glyph unicode="^" glyph-name="asciicircum" horiz-adv-x="1090" d="M0 826Q0 840 14 860L336 1346Q395 1434 471 1434H618Q694 1434 754 1346L1075 860Q1090 840 1090 826T1083 801Q1071 772 1034 772H877Q799 772 743 856L545 1155L346 856Q291 772 213 772H55Q0
772 0 826Z" />
<glyph unicode="_" glyph-name="underscore" horiz-adv-x="819" d="M0 -61Q0 -34 17 -17T61 0H758Q785 0 802 -17T819 -61V-180Q819 -207 802 -224T758 -242H61Q34 -242 17 -225T0 -180V-61Z" />
<glyph unicode="`" glyph-name="grave" horiz-adv-x="563" d="M58 1391Q92 1434 174 1434H256Q305 1434 348 1400T408 1319L512 995Q522 962 522 938Q522 860 420 860H381Q285 860 223 975L59 1278Q41 1313 41 1341T58 1391Z" />
<glyph unicode="a" glyph-name="a" horiz-adv-x="1335" d="M61 164T61 332T193 590T535 680H866Q866 797 817 843T646 889T474 829T352 768H203Q176 768 159 785T141 829Q141 1116 686 1116Q924 1116 1068 1010T1212 680V61Q1212 34 1195 17T1151 0H958Q931 0
914 17T897 61V92Q739 -21 533 -21T194 72ZM489 453T449 419T408 331T450 242T569 207Q723 207 866 297V453H559Q489 453 449 419Z" />
<glyph unicode="b" glyph-name="b" horiz-adv-x="1356" d="M123 1372Q123 1399 140 1416T184 1434H408Q434 1434 451 1417T469 1372V1065Q631 1116 758 1116Q1004 1116 1149 970T1294 547Q1294 -20 659 -20Q514 -20 359 12T123 92V1372ZM469 834V244Q555 221 688
221T879 298T938 547T881 796T686 874Q598 874 469 834Z" />
<glyph unicode="c" glyph-name="c" horiz-adv-x="1272" d="M373 -20T217 124T61 547T216 971T647 1116T1072 1028T1221 768Q1221 741 1204 724T1159 707H1010Q942 707 895 780Q836 874 687 874T478 798T418 548T479 298T693 221T905 315Q952 389 1020 389H1169Q1196
389 1213 372T1231 328Q1231 156 1083 68T654 -20Z" />
<glyph unicode="d" glyph-name="d" horiz-adv-x="1356" d="M342 -20T202 127T61 548T206 969T598 1116Q725 1116 887 1065V1372Q887 1399 904 1416T948 1434H1171Q1198 1434 1215 1417T1233 1372V61Q1233 35 1216 18T1171 0H979Q952 0 935 17T918 61V92Q760 -20
551 -20ZM532 874T475 797T418 548T472 299T634 221T887 311V834Q758 874 670 874Q532 874 475 797Z" />
<glyph unicode="e" glyph-name="e" horiz-adv-x="1290" d="M61 272T61 546T216 968T646 1116T1075 973T1229 561V504Q1229 477 1212 460T1167 442H414Q424 319 484 263T678 207T860 267T981 328H1130Q1157 328 1174 311T1192 266Q1192 -21 645 -20Q369 -20 215
126ZM412 653H877Q867 889 646 889T412 653Z" />
<glyph unicode="f" glyph-name="f" horiz-adv-x="983" d="M926 1200L788 1217Q589 1217 529 1164T469 942V926H831Q858 926 875 909T893 864V745Q893 718 876 701T831 684H469V61Q469 34 452 17T408 0H184Q157 0 140 17T123 61V942Q123 1221 250 1337T696 1454Q860
1454 925 1442T1007 1413T1024 1372V1262Q1024 1235 1007 1218T963 1200H926Z" />
<glyph unicode="g" glyph-name="g" horiz-adv-x="1335" d="M340 84T201 221T61 601T220 980T676 1116Q821 1116 977 1084T1212 1004V78Q1212 -145 1065 -251T653 -358T244 -292T100 -72Q100 -45 117 -28T162 -10H311Q383 -10 426 -63Q481 -131 621 -131T814 -85T866
78V125Q706 84 567 84Q340 84 201 221ZM655 874Q418 875 418 601T649 326Q745 326 866 356V852Q780 875 655 874Z" />
<glyph unicode="h" glyph-name="h" horiz-adv-x="1397" d="M123 61V1372Q123 1399 140 1416T184 1434H408Q434 1434 451 1417T469 1372V971Q641 1116 835 1116T1152 998T1274 635V61Q1274 35 1257 18T1212 0H989Q963 0 946 17T928 61V635Q928 874 737 874Q612
874 469 731V61Q469 35 452 18T408 0H184Q158 0 141 17T123 61Z" />
<glyph unicode="i" glyph-name="i" horiz-adv-x="600" d="M123 1305V1339Q123 1392 153 1423T238 1454H362Q415 1454 446 1424T477 1339V1305Q477 1252 447 1221T362 1190H238Q185 1190 154 1221T123 1305ZM127 61V1010Q127 1037 144 1054T188 1071H412Q439 1071
456 1054T473 1010V61Q473 34 456 17T412 0H188Q161 0 144 17T127 61Z" />
<glyph unicode="j" glyph-name="j" horiz-adv-x="616" d="M-92 -106L10 -121Q65 -121 104 -66T143 113V1010Q143 1037 160 1054T205 1071H428Q455 1071 472 1054T489 1010V113Q489 -358 102 -358Q-35 -358 -123 -338Q-184 -324 -184 -276V-168Q-184 -141 -167
-124T-123 -106H-92ZM139 1305V1339Q139 1392 170 1423T254 1454H379Q432 1454 463 1424T494 1339V1305Q494 1252 463 1221T379 1190H254Q201 1190 170 1221T139 1305Z" />
<glyph unicode="k" glyph-name="k" horiz-adv-x="1249" d="M1228 44Q1228 0 1176 0H987Q891 0 834 94L707 301Q625 434 469 434V61Q469 34 452 17T408 0H184Q157 0 140 17T123 61V1372Q123 1399 140 1416T184 1434H408Q435 1434 452 1417T469 1372V662Q643 662
707 797L803 1001Q823 1044 862 1070T946 1096H1135Q1185 1096 1185 1057Q1185 1035 1169 1001L1040 729Q1007 661 950 612T827 549Q950 512 1040 369L1210 94Q1227 65 1228 44Z" />
<glyph unicode="l" glyph-name="l" horiz-adv-x="592" d="M123 61V1372Q123 1399 140 1416T184 1434H408Q434 1434 451 1417T469 1372V61Q469 35 452 18T408 0H184Q158 0 141 17T123 61Z" />
<glyph unicode="m" glyph-name="m" horiz-adv-x="2058" d="M123 61V1034Q123 1061 140 1078T184 1096H408Q435 1096 452 1079T469 1034V971Q541 1041 610 1078T778 1116Q1011 1116 1131 924Q1317 1117 1512 1117T1821 999T1935 635V61Q1935 34 1918 17T1874 0H1651Q1624
0 1607 17T1589 61V635Q1589 875 1415 874Q1309 874 1196 721Q1202 678 1202 635V61Q1202 34 1185 17T1141 0H918Q891 0 874 17T856 61V635Q856 875 682 874Q571 874 469 731V61Q469 34 452 17T408 0H184Q157 0 140 17T123 61Z" />
<glyph unicode="n" glyph-name="n" horiz-adv-x="1397" d="M123 61V1034Q123 1061 140 1078T184 1096H408Q434 1096 451 1079T469 1034V971Q641 1116 835 1116T1152 998T1274 635V61Q1274 35 1257 18T1212 0H989Q963 0 946 17T928 61V635Q928 874 737 874Q612
874 469 731V61Q469 35 452 18T408 0H184Q158 0 141 17T123 61Z" />
<glyph unicode="o" glyph-name="o" horiz-adv-x="1331" d="M61 268T61 548T217 972T665 1116T1114 973T1270 549T1114 124T666 -20T217 124ZM408 727T408 549T470 289T665 207T861 289T924 549T862 808T666 889T470 808Z" />
<glyph unicode="p" glyph-name="p" horiz-adv-x="1356" d="M123 -276V1034Q123 1061 140 1078T184 1096H377Q403 1096 420 1079T438 1034V1004Q596 1116 805 1116T1154 969T1294 547T1149 126T758 -20Q631 -20 469 31V-276Q469 -303 452 -320T408 -338H184Q158
-338 141 -321T123 -276ZM469 262Q598 221 686 221Q823 221 880 299T938 548T884 796T721 874T469 784V262Z" />
<glyph unicode="q" glyph-name="q" horiz-adv-x="1356" d="M61 549Q61 1116 696 1116Q842 1116 997 1084T1233 1004V-276Q1233 -303 1216 -320T1171 -338H948Q922 -338 905 -321T887 -276V31Q725 -20 598 -20Q352 -20 207 126T61 549ZM670 221Q758 221 887 262V852Q801
874 668 874T477 798T418 549T475 299T670 221Z" />
<glyph unicode="r" glyph-name="r" horiz-adv-x="995" d="M881 842L727 848Q592 848 469 700V61Q469 34 452 17T408 0H184Q157 0 140 17T123 61V1034Q123 1061 140 1078T184 1096H408Q435 1096 452 1079T469 1034V971Q571 1045 665 1080T913 1116Q940 1116 957
1099T975 1055V903Q975 876 958 859T913 842H881Z" />
<glyph unicode="s" glyph-name="s" horiz-adv-x="1225" d="M61 793Q61 1116 582 1116Q1130 1116 1130 829Q1130 803 1113 786T1069 768H920Q848 768 799 828T606 889Q408 889 408 793Q408 748 485 718T674 666T897 608T1085 497T1163 303Q1163 -20 613 -20T63
266Q63 293 80 310T125 328H274Q346 328 395 268T588 207Q817 207 817 303Q817 348 740 378T550 431T328 489T139 601T61 793Z" />
<glyph unicode="t" glyph-name="t" horiz-adv-x="922" d="M645 217L782 229H819Q846 229 863 212T881 168V61Q881 39 864 22T819 0Q717 -20 553 -20Q123 -20 123 430V1372Q123 1399 140 1416T184 1434H408Q434 1434 451 1417T469 1372V1038H748Q774 1038 791 1021T809
977V858Q809 831 792 814T748 797H469V430Q469 328 517 273T645 217Z" />
<glyph unicode="u" glyph-name="u" horiz-adv-x="1397" d="M123 461V1034Q123 1061 140 1078T184 1096H408Q434 1096 451 1079T469 1034V461Q469 221 659 221Q784 221 928 365V1034Q928 1061 945 1078T989 1096H1212Q1239 1096 1256 1079T1274 1034V61Q1274 35
1257 18T1212 0H989Q963 0 946 17T928 61V125Q756 -20 562 -20T245 98T123 461Z" />
<glyph unicode="v" glyph-name="v" horiz-adv-x="1343" d="M72 1096H264Q307 1096 345 1072T399 1008L672 385L944 1008Q960 1047 998 1071T1079 1096H1272Q1307 1096 1318 1070Q1323 1060 1323 1045T1313 1008L881 88Q863 49 825 25T745 0H598Q557 0 519 24T463
88L31 1008Q21 1030 21 1045Q21 1096 72 1096Z" />
<glyph unicode="w" glyph-name="w" horiz-adv-x="1839" d="M29 1008Q21 1034 20 1051Q20 1095 70 1096H256Q303 1096 340 1073T391 1008L555 469L717 1008Q744 1096 831 1096H1008Q1096 1096 1122 1008L1284 469L1448 1008Q1462 1049 1499 1072T1583 1096H1769Q1818
1096 1819 1051Q1819 1033 1810 1008L1507 88Q1493 47 1457 24T1380 0H1239Q1198 0 1161 24T1112 88L920 684L727 88Q715 49 678 25T600 0H459Q418 0 382 23T332 88L29 1008Z" />
<glyph unicode="x" glyph-name="x" horiz-adv-x="1278" d="M35 31Q31 41 31 55T47 88L395 549L70 1008Q38 1050 66 1082Q78 1096 100 1096H317Q414 1096 473 1008L639 756L805 1008Q864 1096 961 1096H1178Q1200 1096 1212 1082Q1240 1050 1208 1008L883 549L1231
88Q1247 70 1247 55T1243 31Q1235 0 1200 0H987Q895 0 831 88L639 348L446 88Q383 0 291 0H78Q43 0 35 31Z" />
<glyph unicode="y" glyph-name="y" horiz-adv-x="1294" d="M336 -104L467 -121Q608 -121 664 86Q494 86 380 188T184 553L35 1036Q32 1044 32 1054T44 1080T82 1096H291Q320 1096 346 1077T381 1028L512 604Q561 448 611 388T731 328L930 1028Q938 1057 961 1076T1014
1096H1225Q1250 1096 1262 1080T1274 1054T1272 1036L1010 102Q940 -146 837 -252T570 -358T340 -346T255 -317T238 -276V-166Q238 -139 255 -122T299 -104H336Z" />
<glyph unicode="z" glyph-name="z" horiz-adv-x="1145" d="M51 915V1034Q51 1061 68 1078T113 1096H1024Q1051 1096 1068 1079T1085 1034V938Q1085 864 1014 793L469 242H1032Q1059 242 1076 225T1094 180V61Q1094 35 1077 18T1032 0H113Q86 0 69 17T51 61V158Q51
231 123 303L649 854H113Q86 854 69 871T51 915Z" />
<glyph unicode="{" glyph-name="braceleft" horiz-adv-x="842" d="M20 565V684Q20 711 37 728T82 745H123Q170 745 204 781T238 870V1118Q238 1323 354 1419T662 1516H760Q786 1516 803 1499T821 1454V1346Q821 1319 804 1302T760 1284H719Q653 1284 606 1233T559
1096V901Q559 786 497 715T334 625Q434 606 496 535T559 348V154Q559 68 606 17T719 -35H760Q786 -35 803 -52T821 -96V-205Q821 -231 804 -248T760 -266H662Q471 -266 355 -170T238 131V379Q238 432 204 468T123 504H82Q55 504 38 521T20 565Z" />
<glyph unicode="|" glyph-name="bar" horiz-adv-x="633" d="M143 -276V1372Q143 1399 160 1416T205 1434H428Q455 1434 472 1417T489 1372V-276Q489 -303 472 -320T428 -338H205Q178 -338 161 -321T143 -276Z" />
<glyph unicode="}" glyph-name="braceright" horiz-adv-x="842" d="M20 -96Q20 -70 37 -53T82 -35H123Q188 -35 235 16T283 154V348Q283 463 345 534T508 625Q408 643 346 714T283 901V1096Q283 1182 236 1233T123 1284H82Q55 1284 38 1301T20 1346V1454Q20 1481
37 1498T82 1516H180Q371 1516 487 1420T604 1118V870Q604 817 638 781T719 745H760Q786 745 803 728T821 684V565Q821 539 804 522T760 504H719Q672 504 638 468T604 379V131Q604 -74 488 -170T180 -266H82Q55 -266 38 -249T20 -205V-96Z" />
<glyph unicode="~" glyph-name="asciitilde" horiz-adv-x="1217" d="M61 555Q61 690 141 765T351 840T599 789T791 737T911 775T1006 813H1104Q1126 813 1140 798T1155 762Q1155 627 1075 552T865 477T618 528T425 580T305 542T211 504H113Q90 504 76 518T61 555Z" />
</font>
</defs>
</svg>
